8K OLED TEST VİDEOSU YAPTIM

İçerik nasıl olmuş

  • Mükemmel Olmuş...

    Oy: 0 0.0%

  • Kullanılan toplam oy
    3
dolbykoray Çevrimdışı

dolbykoray 

Aktif Üye
29 Tem 2019
120
27
Arkadaşlar Merhaba,
Uzun uğraşlar sonucu, bilgisayardan sağlam ter akıta akıta yaptığım render sürecinin sonucu, 7680x4320p 60FPS HDR10 videoyu siz değerli Siz değerli "TavsiyeForumu" üyelerine sunuyorum

Video 38 saniyeden oluşuyor toplam 2400+ resimden oluşuyor her resim 54MB toplamda 110GB'ı bulan bu ham görüntüler 60FPS video haline dönüştürüldü ve sonuç olarak 48Bitlik bir renk paletinden 10 Bitlik video çıkartmış oldum.

Ayrıca ses efektleri Youtube'da çok net olmadığı için sizlere ham görüntülerin indirme linklerini vereceğim indirip kendi cihazlarınızda deneyebilirsiniz.

Sample Youtube Link'i
>>>8K ULTRA HIGH RESULATION<<<


Kayıpsız Video İndirme Linkleri...

8K Kayıpsız Video İndirme Link'i


4K Kayıpsız Video İndirme Link'i





Aşağıda videonun information bilgilerini sunuyorum.

Kod:
General
Unique ID                   : 128396449000264139949181257100535097561 (0x609841AFC4A811B05A4B8F2B10FD68D9)
Complete name               : K:\PROJECT\8K-60-HDR.mkv
Format                      : Matroska
Format version              : Version 4
File size                   : 1.64 GiB
Duration                    : 38 s 497 ms
Overall bit rate            : 365 Mb/s
Encoded date                : UTC 2020-05-09 16:57:44
Writing application         : mkvmerge v25.0.0 ('Prog Noir') 64-bit
Writing library             : libebml v1.3.6 + libmatroska v1.4.9

Video
ID                          : 1
Format                      : HEVC
Format/Info                 : High Efficiency Video Coding
Format profile              : Main 10@L6.2@High
Codec ID                    : V_MPEGH/ISO/HEVC
Duration                    : 38 s 484 ms
Bit rate                    : 351 Mb/s
Width                       : 7 680 pixels
Height                      : 4 320 pixels
Display aspect ratio        : 16:9
Frame rate mode             : Constant
Frame rate                  : 60.000 FPS
Color space                 : YUV
Chroma subsampling          : 4:2:0
Bit depth                   : 10 bits
Bits/(Pixel*Frame)          : 0.176
Stream size                 : 1.57 GiB (96%)
Language                    : Turkish
Default                     : Yes
Forced                      : No
Color range                 : Limited
Color primaries             : BT.2020
Transfer characteristics    : PQ
Matrix coefficients         : BT.2020 non-constant

Audio
ID                          : 2
Format                      : PCM
Format settings             : Little / Signed
Codec ID                    : A_PCM/INT/LIT
Duration                    : 38 s 497 ms
Bit rate mode               : Constant
Bit rate                    : 13.8 Mb/s
Channel(s)                  : 6 channels
Sampling rate               : 96.0 kHz
Frame rate                  : 32.002 FPS (3000 SPF)
Bit depth                   : 24 bits
Stream size                 : 63.4 MiB (4%)
Language                    : Turkish
Default                     : Yes
Forced                      : No

8K-120_02282.jpg
 
smili72 Çevrimdışı

smili72 

Süper Üye
6 Mar 2018
1,532
52
ses seviyesi o kadar yuksek ki distorsiyon ve gurultu duyuluyor sadece ses yirtiliyor
 
dolbykoray Çevrimdışı

dolbykoray 

Aktif Üye
29 Tem 2019
120
27
Eline sağlık iyi hoş sen bunu yaptın da biz neyle izleyeceğiz :hmm :sirit
Bütün cihazlara uyumlu halde, UHD TV için faklı FUHD (8K) TV için farklı indirme linkleri paylaştım. Aslında UHD video'da şuan hiç bir bluray'la kıyaslanamayacak kalitede render edildi :mutlu

Vestel TVye bu başlığı gösterdim, göz kırptı ve kapandı :)
Vestel'in TV departmanı videoyu görünce ne hissetti acaba.

ses seviyesi o kadar yuksek ki distorsiyon ve gurultu duyuluyor sadece ses yirtiliyor
Çok teknik bir konu, aslında ses 96Khz-24 Bit, tepe doygunlukta, bundan olayı downsample yapılınca ses distorsyona uyruyor 13.4Mbps bir derinlikteki sesi 320Kbps 'e düşürdüğünüzde sesde bozulma ve çatlamalar meydana gelebiliyor. onun haricinde eklemiş olduğum"Pan" efektleride çok yumuşak değil, distorsiyon boyutundabir efekt sizlere efektlerin ve sesin ham halini atayım dosya içerisinden bakabilirsiniz. Selamlar :bye
Ham Ses Dosyaları...
 
Son düzenleme:
dolbykoray Çevrimdışı

dolbykoray 

Aktif Üye
29 Tem 2019
120
27
Emeklerine sağlık benim için önemliydi açıkçası. Yarın ofise gidince indirip deneyeceğim birkaç tv de.

Can abi ne düşünüyor acaba? albanez albanez ?
Adminimizde beğendiyse bu iş tamamdır.
Eğer talep ve beğeni oranı artış gösterirse Dolby Vision çıktısı da alabilirim ileriki tarihlerde (Haziran Ortası)
 
F Çevrimdışı

fikoloji

Süper Üye
13 Eki 2018
16,634
Koray kardeşim malum 4k içerik benim için daha iyi olur şöyle örnek vereyim; YouTube de vesteloji kanalımda TV inceleme videoları atıyorum ni tekim bazen full HD görüntü de açıyorum. Size zahmet 4k hdr li ve full HD video hazirlarsaniz demolari açabilirim. Ve bu videolarla kayıt alabilirim
 
Umut Barış Çevrimdışı
23 Kas 2017
20,633
110 GB veriyi işlemek acaba ne kadar sürdü, merak ediyorum. :hihi
Emeğiniz için teşekkür ederiz fakat Google Drive'a şifreleyip atsaydınız daha iyi olmaz mıydı hocam? dolbykoray dolbykoray
Turbobit Premium olmadan uzun sürer gibi inmesi. :alala
 
Geri
Üst Alt